osu file format v14

[General]
AudioFilename: primalhearts_op.mp3
AudioLeadIn: 1500
PreviewTime: 70859
Countdown: 0
SampleSet: Soft
StackLeniency: 0.7
Mode: 0
LetterboxInBreaks: 0
WidescreenStoryboard: 0

[Editor]
Bookmarks: 85286
DistanceSpacing: 1
BeatDivisor: 4
GridSize: 8
TimelineZoom: 1.8

[Metadata]
Title:primal
TitleUnicode:primal
Artist:solfa feat.Ceui
ArtistUnicode:solfa feat.Ceui
Creator:CloudSplash16
Version:Troogle's Easy
Source:PRIMAL×HEARTS
Tags:プライマルハーツ marmalade eroge opening meyrink -google- troogle
BeatmapID:610875
BeatmapSetID:227040

[Difficulty]
HPDrainRate:2
CircleSize:3
OverallDifficulty:2
ApproachRate:3
SliderMultiplier:0.8
SliderTickRate:1

[Events]
//Background and Video events
0,0,"bg.jpg",0,0
Video,0,"op.avi",0,0
//Break Periods
2,62622,66862
//Storyboard Layer 0 (Background)
//Storyboard Layer 1 (Fail)
//Storyboard Layer 2 (Pass)
//Storyboard Layer 3 (Foreground)
//Storyboard Sound Samples

[TimingPoints]
315,324.324324324324,4,2,2,30,1,0
315,-100,4,2,2,30,0,0
10693,-100,4,2,1,65,0,0
20585,-100,4,2,1,40,0,0
21071,-100,4,2,1,65,0,0
31450,-100,4,2,1,55,0,0
41828,-100,4,2,1,60,0,0
52044,-100,4,2,1,40,0,0
52206,-100,4,2,1,55,0,0
62585,324.324324324324,6,2,1,30,1,0
68422,324.324324324324,4,2,1,50,1,0
68422,-133.333333333333,4,2,1,50,0,0
69394,-100,4,2,1,50,0,0
71016,-100,4,2,1,70,0,1
80908,-100,4,2,1,50,0,1
81313,-100,4,2,1,50,0,0
81394,-100,4,2,1,70,0,1
91773,-100,4,2,1,70,0,0
104908,-100,4,2,1,50,0,0
109935,-100,4,2,1,40,0,0
111232,-100,4,2,1,30,0,0
111881,-100,4,2,1,20,0,0
112205,-100,4,2,1,10,0,0

[Colours]
Combo1 : 21,123,217
Combo2 : 245,101,138
Combo3 : 139,205,22
Combo4 : 255,196,22
Combo5 : 66,196,255
Combo6 : 199,115,233

[HitObjects]
152,88,315,6,0,B|111:100|69:87|41:60,2,120,2|2|2,0:0|0:0|0:0,0:0:0:0:
232,88,1612,2,0,B|288:86|336:124|349:175,1,160,0|2,0:0|0:0,0:0:0:0:
312,248,2585,1,0,0:0:0:0:
235,270,2909,6,0,B|200:246|157:245|121:262,2,120,2|2|2,0:0|0:0|0:0,0:0:0:0:
292,325,4206,2,0,B|348:347|410:321|436:270,1,160,0|2,0:0|0:0,0:0:0:0:
448,200,5179,1,0,0:0:0:0:
416,128,5504,6,0,B|401:73|350:39|297:41,1,160,,,0:0:0:0:
232,88,6477,1,0,0:0:0:0:
168,136,6801,2,0,B|134:161|91:165|54:151,2,120,2|2|2,0:0|0:0|0:0,0:0:0:0:
232,88,8098,6,0,B|282:115|303:172|287:223,1,160,,,0:0:0:0:
232,280,9071,1,0,0:0:0:0:
160,312,9396,2,0,B|120:328|78:320|46:296,2,120,2|0|2,0:0|0:0|0:0,0:0:0:0:
232,280,10693,6,0,B|269:236|332:231|375:263,1,160,6|0,0:0|0:0,0:0:0:0:
448,232,11666,2,0,B|490:194|497:133|472:87,1,160,2|0,0:0|0:0,0:0:0:0:
400,48,12639,1,2,0:0:0:0:
323,71,12963,6,0,B|294:76|269:88|249:106,1,80,8|2,0:0|0:0,0:0:0:0:
270,181,13612,2,0,B|238:207|198:214,1,80,0|0,0:0|0:0,0:0:0:0:
144,272,14260,2,0,B|171:322|228:343|279:329,1,160,2|0,0:0|0:0,0:0:0:0:
350,288,15233,1,2,0:0:0:0:
384,216,15558,1,8,0:0:0:0:
376,136,15882,6,0,B|357:82|304:51|251:57,1,160,6|0,0:0|0:0,0:0:0:0:
172,66,16855,2,0,B|115:71|72:114|64:167,1,160,2|0,0:0|0:0,0:0:0:0:
62,246,17828,1,2,0:0:0:0:
113,307,18152,1,8,0:0:0:0:
184,344,18477,6,0,B|208:359|235:364|261:363,2,80,2|0|0,0:0|0:0|0:0,0:0:0:0:
113,307,19450,2,0,B|123:251|172:212|225:211,1,160,2|8,0:0|0:0,0:0:0:0:
304,208,20423,2,0,L|384:208,1,80,2|8,0:0|0:0,0:0:0:0:
464,200,21071,6,0,B|486:147|468:89|426:57,1,160,6|0,0:0|0:0,0:0:0:0:
352,88,22044,2,0,B|309:130|242:128|201:89,1,160,8|8,0:0|0:0,0:0:0:0:
136,56,23017,1,0,0:0:0:0:
80,112,23342,6,0,B|60:140|54:173|59:204,2,80,8|2|8,0:0|0:0|0:0,0:0:0:0:
137,56,24314,1,0,0:0:0:0:
206,93,24639,2,0,B|239:139|234:200|199:240,1,160,8|8,0:0|0:0,0:0:0:0:
147,304,25612,2,0,B|169:322|197:326|222:320,1,80,0|8,0:0|0:0,0:0:0:0:
297,291,26260,6,0,B|324:255|364:254|364:254|376:221|418:192,1,160,6|0,0:0|0:0,0:0:0:0:
442,118,27233,2,0,B|412:67|354:46|301:58,1,160,8|8,0:0|0:0,0:0:0:0:
264,126,28206,2,0,B|240:145|210:150|183:144,1,80,0|8,0:0|0:0,0:0:0:0:
112,120,28855,6,0,B|73:138|50:174|46:213,2,120,2|2|8,0:0|0:0|0:0,0:0:0:0:
188,145,30152,2,0,B|201:186|243:209|283:199,2,120,8|8|8,0:0|0:0|0:0,0:0:0:0:
265,123,31450,5,4,0:0:0:0:
420,96,32098,2,0,B|440:149|419:207|375:236,1,160,8|0,0:0|0:0,0:0:0:0:
304,280,33071,2,0,B|277:291|249:284|229:266,1,80,2|8,0:0|0:0,0:0:0:0:
111,158,34044,6,0,B|59:188|38:248|54:301,1,160,2|8,0:0|0:0,0:0:0:0:
119,339,35017,2,0,B|146:352|175:349|198:335,1,80,2|0,0:0|0:0,0:0:0:0:
232,264,35666,2,0,B|207:250|178:253|156:268,1,80,2|8,0:0|0:0,0:0:0:0:
304,344,36639,6,0,B|331:355|360:354|384:344,1,80,2|0,0:0|0:0,0:0:0:0:
430,281,37287,2,0,B|456:230|442:171|402:136,1,160,8|0,0:0|0:0,0:0:0:0:
321,145,38260,2,0,B|294:155|266:154|242:144,1,80,2|8,0:0|0:0,0:0:0:0:
104,80,39233,6,0,B|74:80|50:98|38:123,1,80,2|0,0:0|0:0,0:0:0:0:
43,202,39882,2,0,B|72:201|97:183|109:159,1,80,8|0,0:0|0:0,0:0:0:0:
174,117,40531,1,0,0:0:0:0:
248,144,40855,2,0,B|260:169|255:198|239:218,1,80,2|8,0:0|0:0,0:0:0:0:
216,296,41504,1,8,0:0:0:0:
296,296,41828,6,0,B|316:316|344:324|370:319,1,80,6|8,0:0|0:0,0:0:0:0:
427,263,42477,2,0,B|407:240|377:231|349:236,2,80,2|8|2,0:0|0:0|0:0,0:0:0:0:
491,217,43450,2,0,B|504:162|470:107|417:94,1,160,8|8,0:0|0:0,0:0:0:0:
348,138,44423,6,0,B|323:153|296:158|270:156,1,80,2|8,0:0|0:0,0:0:0:0:
206,112,45071,2,0,B|177:110|151:117|128:130,1,80,2|8,0:0|0:0,0:0:0:0:
104,206,45720,2,0,B|127:223|136:252|131:278,1,80,2|8,0:0|0:0,0:0:0:0:
192,328,46369,2,0,B|221:320|249:325|272:339,1,80,2|8,0:0|0:0,0:0:0:0:
349,340,47017,6,0,B|374:354|402:356|426:348,2,80,6|8|2,0:0|0:0|0:0,0:0:0:0:
328,264,47990,1,8,0:0:0:0:
256,232,48314,2,0,B|231:217|203:215|178:223,1,80,2|8,0:0|0:0,0:0:0:0:
128,160,48963,2,0,B|137:132|157:111|181:100,1,80,2|8,0:0|0:0,0:0:0:0:
256,72,49612,6,0,B|280:56|307:50|333:53,2,80,2|8|2,0:0|0:0|0:0,0:0:0:0:
248,152,50585,1,8,0:0:0:0:
256,232,50909,2,0,B|230:245|203:246|178:240,2,80,2|8|2,0:0|0:0|0:0,0:0:0:0:
328,264,51882,1,12,0:0:0:0:
264,312,52206,5,6,0:0:0:0:
104,304,52855,2,0,B|83:284|72:258|68:232,1,80,0|8,0:0|0:0,0:0:0:0:
128,184,53504,2,0,B|158:192|188:181|208:160,1,80,2|8,0:0|0:0,0:0:0:0:
250,101,54152,2,0,B|277:94|305:96|329:105,1,80,0|8,0:0|0:0,0:0:0:0:
385,161,54801,5,2,0:0:0:0:
463,300,55450,2,0,B|446:323|423:339|399:348,1,80,0|8,0:0|0:0,0:0:0:0:
334,302,56099,2,0,B|312:283|286:274|259:272,1,80,2|8,0:0|0:0,0:0:0:0:
191,308,56747,2,0,B|162:305|137:294|117:276,1,80,0|8,0:0|0:0,0:0:0:0:
96,200,57396,5,6,0:0:0:0:
168,56,58044,2,0,B|206:14|270:12|310:49,1,160,0|2,0:0|0:0,0:0:0:0:
352,120,59017,1,8,0:0:0:0:
368,200,59342,2,0,B|351:224|329:240|305:250,1,80,0|8,0:0|0:0,0:0:0:0:
226,249,59990,6,0,B|218:219|200:195|177:180,2,80,2|8|0,0:0|0:0|0:0,0:0:0:0:
264,320,60963,1,8,0:0:0:0:
344,320,61287,2,0,B|373:325|402:319|424:304,2,80,2|8|0,0:0|0:0|0:0,0:0:0:0:
264,320,62260,2,0,L|224:320,1,40,8|8,0:0|0:0,0:0:0:0:
144,160,68422,6,0,B|125:207|143:260|186:288|230:288,1,180.000006866455,6|0,0:0|0:0,0:0:0:0:
308,294,69719,2,0,L|388:302,1,80,8|2,0:0|0:0,0:0:0:0:
399,222,70367,2,0,L|311:214,1,80,0|8,0:0|0:0,0:0:0:0:
247,183,71016,6,0,B|246:140|281:105|322:104,2,120,6|2|8,0:0|0:0|0:0,0:0:0:0:
328,184,72313,2,0,B|354:219|403:226|437:203,2,120,2|2|8,0:0|0:0|0:0,0:0:0:0:
393,135,73611,6,0,B|421:125|440:103|448:77,2,80,2|8|0,0:0|0:0|0:0,0:0:0:0:
321,104,74584,1,8,0:0:0:0:
248,136,74908,2,0,B|181:126|150:75|150:75|98:83|30:49,1,240,2|8,0:0|0:0,0:0:0:0:
8,128,76205,1,6,0:0:0:0:
31,204,76530,6,0,B|55:256|115:279|166:260,1,160,8|8,0:0|0:0,0:0:0:0:
244,275,77503,2,0,B|237:321|192:351|148:341,2,120,2|2|8,0:0|0:0|0:0,0:0:0:0:
224,200,78800,2,0,B|206:174|203:143|212:115,2,80,2|8|0,0:0|0:0|0:0,0:0:0:0:
304,216,79773,2,0,B|358:198|415:223|440:271,1,160,8|8,0:0|0:0,0:0:0:0:
499,217,80746,2,0,B|483:191|460:171|435:158,1,80,2|8,0:0|0:0,0:0:0:0:
368,136,81394,6,0,B|325:133|293:99|288:59,2,120,6|2|8,0:0|0:0|0:0,0:0:0:0:
382,215,82692,2,0,B|361:253|318:268|280:256,2,120,2|2|8,0:0|0:0|0:0,0:0:0:0:
441,162,83989,6,0,B|439:132|451:106|472:88,2,80,2|8|0,0:0|0:0|0:0,0:0:0:0:
456,240,84962,1,8,0:0:0:0:
440,320,85286,2,0,B|374:336|325:301|325:301|280:329|204:324,1,240,2|8,0:0|0:0,0:0:0:0:
136,288,86583,5,6,0:0:0:0:
79,231,86908,2,0,B|55:207|51:172|63:144,1,80,8|0,0:0|0:0,0:0:0:0:
97,87,87557,1,8,0:0:0:0:
163,42,87881,2,0,B|191:28|222:27|250:34,1,80,2|8,0:0|0:0,0:0:0:0:
304,80,88530,2,0,B|323:104|328:134|322:161,1,80,0|8,0:0|0:0,0:0:0:0:
291,228,89178,6,0,B|239:257|178:250|135:217,1,160,2|0,0:0|0:0,0:0:0:0:
65,188,90151,2,0,B|53:161|52:133|59:107,2,80,8|6|8,0:0|0:0|0:0,0:0:0:0:
75,267,91124,2,0,B|92:294|119:310|148:314,1,80,0|8,0:0|0:0,0:0:0:0:
218,304,91773,6,0,B|227:247|212:192|182:150,1,160,6|0,0:0|0:0,0:0:0:0:
258,124,92746,2,0,B|292:169|341:195|392:200,1,160,8|8,0:0|0:0,0:0:0:0:
469,175,93719,1,0,0:0:0:0:
410,120,94043,6,0,B|387:97|358:84|328:81,2,80,8|2|8,0:0|0:0|0:0,0:0:0:0:
469,175,95016,1,0,0:0:0:0:
438,248,95340,2,0,B|406:295|357:323|306:329,1,160,8|8,0:0|0:0,0:0:0:0:
225,334,96313,2,0,L|152:296,1,80,0|8,0:0|0:0,0:0:0:0:
112,232,96962,6,0,B|90:204|81:170|84:137,2,80,6|8|0,0:0|0:0|0:0,0:0:0:0:
187,215,97935,2,0,B|209:162|203:105|178:59,1,160,8|8,0:0|0:0,0:0:0:0:
101,81,98908,2,0,B|87:106|82:133|84:159,1,80,0|8,0:0|0:0,0:0:0:0:
112,232,99557,6,0,B|116:281|150:319|192:334,2,120,2|2|8,0:0|0:0|0:0,0:0:0:0:
183,200,100854,2,0,B|208:234|247:250|286:249,2,120,2|2|8,0:0|0:0|0:0,0:0:0:0:
223,131,102151,6,0,B|271:141|318:123|347:89,2,120,6|2|8,0:0|0:0|0:0,0:0:0:0:
142,127,103449,2,0,B|112:125|86:137|67:157,1,80,6|2,0:0|0:0,0:0:0:0:
32,224,104097,2,0,B|18:250|19:279|30:303,1,80,2|2,0:0|0:0,0:0:0:0:
256,192,104746,12,0,112530,0:0:0:0:
